Автор Тема: MPC Video Renderer  (Прочитано 156183 раз)

0 Пользователей и 4 Гостей просматривают эту тему.

Aleksoid1978

  • Администратор
  • Ветеран
  • *****
  • Сообщений: 2542
Re: MPC Video Renderer
« Ответ #1290 : 07 Сентябрь 2020, 10:10:50 »
MPCfan
Т.е. с эксклюзивным режимом все норм, а с обычным оконным FS - нет ?

P.S. У себя не смогу воспроизвести, что просто FS что эсклюзив - при переходе туда/обратно корректно меняется инфа.
« Последнее редактирование: 07 Сентябрь 2020, 13:08:07 от Aleksoid1978 »
AMD Ryzen 5 3600 /GIGABYTE B450 Gaming X /AMD Radeon R9 16Gb@3200 /Kingston 500Gb M.2 /GTX 1650 /Samsung U28R550UQI /LG 47LM620T /Yamaha RX-V471 + NS-555 + NS-C444 + NS-333 + YST-SW215

usalex

  • Постоялец
  • ***
  • Сообщений: 106
Re: MPC Video Renderer
« Ответ #1291 : 12 Сентябрь 2020, 13:53:11 »
Вот я и спросил, почему только в режиме FSE? Неужели нельзя нормально заставить работать MPC-VR в обычном режиме?
нет
https://bugs.chromium.org/p/chromium/issues/detail?id=680639
https://bugs.chromium.org/p/chromium/issues/detail?id=467617
но подвижки есть
https://www.reddit.com/r/Windows10/comments/f57tk4/dwm_multiple_monitors_with_different_refresh_rate/
На своей конфигурации (монитор + ТВ) я на 2004 много тестил контента с EVR-CP и MPCVR.
В плане плавности никаких различий в поведении в сравнении с LTSB не обнаружил. Пробовал и на обычных драйверах и на тех, в которых внедрили "Hardware Accelerated GPU Scheduling", пробовал и в реальном эксклюзиве и в оптимизированном, пробовал оконный режим.
Никаких преимуществ эта 2004 не даёт. Вернулся на LTSB.

MPCfan

  • Постоялец
  • ***
  • Сообщений: 250
Re: MPC Video Renderer
« Ответ #1292 : 09 Октябрь 2020, 19:21:12 »
Aleksoid1978,
V0lt,
Может и ошибаюсь, но кажется с dx11 память течёт. Далее выложу 2 видео по 6 минут, можно посмотреть начало и окончание и посмотреть на разницу(память) между dx9 и dx11. Действие будет простое: буду не спеша перезапускать один и тот же файл на протяжении шести минут.
DX9+DXVA2+GT730M >  https://yadi.sk/i/gIdx7A8JFGGVMA
DX11+DXVA2+GT730M > https://yadi.sk/i/xwJAImiNo7halg
P.S. MPC-BE-MPC-VR последние.
« Последнее редактирование: 09 Октябрь 2020, 19:27:49 от MPCfan »

V0lt

  • Администратор
  • Ветеран
  • *****
  • Сообщений: 2105
Re: MPC Video Renderer
« Ответ #1293 : 10 Октябрь 2020, 15:41:28 »
MPCfan
Будет время - посмотрю...

Aleksoid1978

  • Администратор
  • Ветеран
  • *****
  • Сообщений: 2542
Re: MPC Video Renderer
« Ответ #1294 : 11 Октябрь 2020, 02:29:10 »
Aleksoid1978,
V0lt,
Может и ошибаюсь, но кажется с dx11 память течёт. Далее выложу 2 видео по 6 минут, можно посмотреть начало и окончание и посмотреть на разницу(память) между dx9 и dx11. Действие будет простое: буду не спеша перезапускать один и тот же файл на протяжении шести минут.
DX9+DXVA2+GT730M >  https://yadi.sk/i/gIdx7A8JFGGVMA
DX11+DXVA2+GT730M > https://yadi.sk/i/xwJAImiNo7halg
P.S. MPC-BE-MPC-VR последние.

Настройки дефолтные? Если нет - то можно скрин.
AMD Ryzen 5 3600 /GIGABYTE B450 Gaming X /AMD Radeon R9 16Gb@3200 /Kingston 500Gb M.2 /GTX 1650 /Samsung U28R550UQI /LG 47LM620T /Yamaha RX-V471 + NS-555 + NS-C444 + NS-333 + YST-SW215

MPCfan

  • Постоялец
  • ***
  • Сообщений: 250
Re: MPC Video Renderer
« Ответ #1295 : 11 Октябрь 2020, 03:10:45 »
Aleksoid1978,
Настройки в MPC-VR по умолчанию, в MPC-BE полностью все встроенные фильтры, в том числе и mpc-audiorenderer, c софтовым декодером - то же самое.

V0lt

  • Администратор
  • Ветеран
  • *****
  • Сообщений: 2105
Re: MPC Video Renderer
« Ответ #1296 : 11 Октябрь 2020, 04:43:46 »
Утечку подтверждаю.

Архив test512.7z для тестов.
Распаковать, закинуть папку в плейлист, запустить первый файл. Посмотреть сколько потребление памяти на первом файле, и сколько будет через 5 минут.

Aleksoid1978

  • Администратор
  • Ветеран
  • *****
  • Сообщений: 2542
Re: MPC Video Renderer
« Ответ #1297 : 12 Октябрь 2020, 00:29:43 »
Утечку в DX11 режиме устранил.
AMD Ryzen 5 3600 /GIGABYTE B450 Gaming X /AMD Radeon R9 16Gb@3200 /Kingston 500Gb M.2 /GTX 1650 /Samsung U28R550UQI /LG 47LM620T /Yamaha RX-V471 + NS-555 + NS-C444 + NS-333 + YST-SW215

LongKick64

  • Постоялец
  • ***
  • Сообщений: 474
Re: MPC Video Renderer
« Ответ #1298 : 16 Ноябрь 2020, 15:17:54 »
В режиме Direct3D 9Ex, постоянно дропаются кадры при обычном воспроизведении. Скрин. То есть, файл просто воспроизводится и приблизительно каждые 5 сек. выпадает по одном кадру. С EVR(CP) такой проблемы нет. MPC Video Renderer 0.4.9.1460 (git-2020.08.24-ec3f003) x64. Настройки дефолтные. Вот MediaInfo проблемного файла:

Общее
Идентификатор                            : 0 (0x0)
Полное имя                               : D:\Клипы\AKB48 - UZA.m2ts
Формат                                   : BDAV
Формат/Информация                        : Blu-ray Video
Размер файла                             : 1,24 Гбайт
Продолжительность                        : 4 м. 51 с.
Режим общего битрейта                    : Переменный
Общий поток                              : 36,5 Мбит/сек
Максимальный общий битрейт               : 48,0 Мбит/сек

Видео
Идентификатор                            : 4113 (0x1011)
Идентификатор меню                       : 1 (0x1)
Формат                                   : AVC
Формат/Информация                        : Advanced Video Codec
Профиль формата                          : High@L4.1
Настройки формата                        : CABAC / 4 Ref Frames
Параметр CABAC формата                   : Да
Параметр RefFrames формата               : 4 кадра
Идентификатор кодека                     : 27
Продолжительность                        : 4 м. 52 с.
Вид битрейта                             : Переменный
Битрейт                                  : 33,5 Мбит/сек
Максимальный битрейт                     : 37,0 Мбит/сек
Ширина                                   : 1 920 пикселей
Высота                                   : 1 080 пикселей
Соотношение сторон                       : 16:9
Частота кадров                           : 29,970 (30000/1001) кадров/сек
Цветовое пространство                    : YUV
Субдискретизация насыщенности            : 4:2:0
Битовая глубина                          : 8 бит
Тип развёртки                            : MBAFF
Метод сохранения типа развёртки          : Чередующиеся поля
Порядок развёртки                        : Верхнее поле первое
Бит/(Пиксели*Кадры)                      : 0.539
Размер потока                            : 1,14 Гбайт (92%)

Аудио
Идентификатор                            : 4352 (0x1100)
Идентификатор меню                       : 1 (0x1)
Формат                                   : PCM
Настройки формата                        : Big / Signed
Режим смешивания                         : Blu-ray
Идентификатор кодека                     : 128
Продолжительность                        : 4 м. 52 с.
Вид битрейта                             : Постоянный
Битрейт                                  : 1 536 Кбит/сек
Каналы                                   : 2 канала
Channel layout                           : L R
Частота                                  : 48,0 КГц
Битовая глубина                          : 16 бит
Размер потока                            : 53,6 Мбайт (4%)

« Последнее редактирование: 16 Ноябрь 2020, 15:19:44 от LongKick64 »

Aleksoid1978

  • Администратор
  • Ветеран
  • *****
  • Сообщений: 2542
Re: MPC Video Renderer
« Ответ #1299 : 17 Ноябрь 2020, 04:52:14 »
А попробуй поменять Swap effect на Flip. Ну судя по скрину просто "не успевает" выводить "двойные деинтерлэйсные" кадры.
AMD Ryzen 5 3600 /GIGABYTE B450 Gaming X /AMD Radeon R9 16Gb@3200 /Kingston 500Gb M.2 /GTX 1650 /Samsung U28R550UQI /LG 47LM620T /Yamaha RX-V471 + NS-555 + NS-C444 + NS-333 + YST-SW215

V0lt

  • Администратор
  • Ветеран
  • *****
  • Сообщений: 2105
Re: MPC Video Renderer
« Ответ #1300 : 17 Ноябрь 2020, 04:55:28 »
LongKick64
Ну дропаются и дропаются. Судя по скриншоту, видео специфичное (не в первый раз оно тут появляется). Плюс довольно медленная встроенная графика (память хоть в двухканальном режиме работает?). Когда график поднимается выше определенного значения, то приходиться выкидывать кадры иначе разойдемся со звуком.

LongKick64

  • Постоялец
  • ***
  • Сообщений: 474
Re: MPC Video Renderer
« Ответ #1301 : 17 Ноябрь 2020, 12:01:14 »
А попробуй поменять Swap effect на Flip. Ну судя по скрину просто "не успевает" выводить "двойные деинтерлэйсные" кадры.
Попробовал, кадры все равно выпадают.

LongKick64

  • Постоялец
  • ***
  • Сообщений: 474
Re: MPC Video Renderer
« Ответ #1302 : 17 Ноябрь 2020, 12:05:20 »
LongKick64
Ну дропаются и дропаются. Судя по скриншоту, видео специфичное (не в первый раз оно тут появляется). Плюс довольно медленная встроенная графика (память хоть в двухканальном режиме работает?). Когда график поднимается выше определенного значения, то приходиться выкидывать кадры иначе разойдемся со звуком.
Видеокарта AMD Radeon HD 6490M. В статистике ошибочно пишет Intel HD Graphics 3000.

LongKick64

  • Постоялец
  • ***
  • Сообщений: 474
Re: MPC Video Renderer
« Ответ #1303 : 17 Ноябрь 2020, 12:12:39 »
Это не единственное такое видео. Вот MediaInfo другого видео с аналогичной проблемой.

Общее
Идентификатор                            : 0 (0x0)
Полное имя                               : D:\Клипы\D4-14. AKB48 - Yankee Machine Gun [2015.08.26].m2ts
Формат                                   : BDAV
Формат/Информация                        : Blu-ray Video
Размер файла                             : 942 Мбайт
Продолжительность                        : 4 м. 9 с.
Режим общего битрейта                    : Переменный
Общий поток                              : 31,7 Мбит/сек
Максимальный общий битрейт               : 48,0 Мбит/сек

Видео
Идентификатор                            : 4113 (0x1011)
Идентификатор меню                       : 1 (0x1)
Формат                                   : AVC
Формат/Информация                        : Advanced Video Codec
Профиль формата                          : High@L4.1
Настройки формата                        : CABAC / 4 Ref Frames
Параметр CABAC формата                   : Да
Параметр RefFrames формата               : 4 кадра
Идентификатор кодека                     : 27
Продолжительность                        : 4 м. 9 с.
Вид битрейта                             : Переменный
Битрейт                                  : 28,2 Мбит/сек
Максимальный битрейт                     : 35,0 Мбит/сек
Ширина                                   : 1 920 пикселей
Высота                                   : 1 080 пикселей
Соотношение сторон                       : 16:9
Частота кадров                           : 29,970 (30000/1001) кадров/сек
Стандарт вещания                         : NTSC
Цветовое пространство                    : YUV
Субдискретизация насыщенности            : 4:2:0
Битовая глубина                          : 8 бит
Тип развёртки                            : MBAFF
Метод сохранения типа развёртки          : Чередующиеся поля
Порядок развёртки                        : Верхнее поле первое
Бит/(Пиксели*Кадры)                      : 0.453
Размер потока                            : 836 Мбайт (89%)
Цветовой диапазон                        : Limited
Основные цвета                           : BT.709
Характеристики трансфера                 : BT.709
Коэффициенты матрицы                     : BT.709

Аудио
Идентификатор                            : 4352 (0x1100)
Идентификатор меню                       : 1 (0x1)
Формат                                   : PCM
Настройки формата                        : Big / Signed
Режим смешивания                         : Blu-ray
Идентификатор кодека                     : 128
Продолжительность                        : 4 м. 9 с.
Вид битрейта                             : Постоянный
Битрейт                                  : 2 304 Кбит/сек
Каналы                                   : 2 канала
Channel layout                           : L R
Частота                                  : 48,0 КГц
Битовая глубина                          : 24 бит
Размер потока                            : 68,4 Мбайт (7%)


Aleksoid1978

  • Администратор
  • Ветеран
  • *****
  • Сообщений: 2542
Re: MPC Video Renderer
« Ответ #1304 : 17 Ноябрь 2020, 12:14:38 »
То что ошибочно пишет что Intel - ну это у тебя ноутбук, так система/Direct3D отдает инфу.

По поводу выпадания - визуально что заметно/мешает ? Как другие VR ведут себя - тот же EVR-CP, madVR ?
AMD Ryzen 5 3600 /GIGABYTE B450 Gaming X /AMD Radeon R9 16Gb@3200 /Kingston 500Gb M.2 /GTX 1650 /Samsung U28R550UQI /LG 47LM620T /Yamaha RX-V471 + NS-555 + NS-C444 + NS-333 + YST-SW215